<?xml version="1.0" standalone="no"?>
<!DOCTYPE svg PUBLIC "-//W3C//DTD SVG 1.1//EN" "http://www.w3.org/Graphics/SVG/1.1/DTD/svg11.dtd" >
<svg xmlns="http://www.w3.org/2000/svg">
<metadata>Generated by IcoMoon</metadata>
<defs>
<font id="icomoon" horiz-adv-x="1024">
<font-face units-per-em="1024" ascent="960" descent="-64" />
<missing-glyph horiz-adv-x="1024" />
<glyph unicode="&#x20;" horiz-adv-x="512" d="" />
<glyph unicode="&#xe900;" glyph-name="cart_add" horiz-adv-x="1600" d="M890.112 96h-794.112v736h-96v64h160v-160h860.704l-130.592-640zM160 160h677.888l104.48 512h-782.368v-512zM208.512 7.744c0-31.069-25.187-56.256-56.256-56.256s-56.256 25.187-56.256 56.256c0 31.069 25.187 56.256 56.256 56.256s56.256-25.187 56.256-56.256zM880.512 7.744c0-31.069-25.187-56.256-56.256-56.256s-56.256 25.187-56.256 56.256c0 31.069 25.187 56.256 56.256 56.256s56.256-25.187 56.256-56.256zM1600 736h-224v224h-64v-224h-224v-64h224v-224h64v224h224z" />
<glyph unicode="&#xe901;" glyph-name="cart_empty" d="M890.112 96h-794.112v736h-96v64h160v-160h860.704l-130.592-640zM160 160h677.888l104.48 512h-782.368v-512zM208.512 7.744c0-31.069-25.187-56.256-56.256-56.256s-56.256 25.187-56.256 56.256c0 31.069 25.187 56.256 56.256 56.256s56.256-25.187 56.256-56.256zM880.512 7.744c0-31.069-25.187-56.256-56.256-56.256s-56.256 25.187-56.256 56.256c0 31.069 25.187 56.256 56.256 56.256s56.256-25.187 56.256-56.256z" />
<glyph unicode="&#xe902;" glyph-name="cart_full" d="M890.112 96h-794.112v736h-96v64h160v-160h860.704l-130.592-640zM160 160h677.888l104.48 512h-782.368v-512zM208.512 7.744c0-31.069-25.187-56.256-56.256-56.256s-56.256 25.187-56.256 56.256c0 31.069 25.187 56.256 56.256 56.256s56.256-25.187 56.256-56.256zM880.512 7.744c0-31.069-25.187-56.256-56.256-56.256s-56.256 25.187-56.256 56.256c0 31.069 25.187 56.256 56.256 56.256s56.256-25.187 56.256-56.256zM224 288v-64h557.696l13.664 64zM224 448v-64h591.936l13.696 64zM224 608v-64h626.176l13.696 64z" />
<glyph unicode="&#xe903;" glyph-name="profile" d="M896 512h32c0 0-10.208 14.4-32 34.464v125.536c0 126.336-68.448 275.552-355.296 286.88-7.904 0.896 3.296 1.44-28.704 1.472v-0.736c0 0.064-8.8 0.384-13.12 0.384-6.336 0 13.12-0.448-18.88-0.576v0.928c0 0-8.992-0.672-17.696-1.696-280.256-13.696-334.304-161.472-334.304-286.656v-123.456c-22.144-21.216-32-36.544-32-36.544h32v-96h-32v-64h32v-32c0-211.744 172.256-384 384-384s384 172.256 384 384v32h32v64h-32v96zM832 672v-77.632c-22.784 13.92-50.304 27.712-82.304 40 0.16 18.304 0.32 46.72 0.32 89.6 0 58.944-14.752 104.16-37.376 138.528 119.328-52.096 119.36-150.624 119.36-190.496zM536.736 895.584c39.68-3.84 149.28-27.424 149.28-171.648 0-29.856-0.064-52.256-0.192-69.504-50.528 12.928-109.504 21.536-178.816 21.536-67.968 0-125.44-8.288-174.592-20.8-0.096 17.152-0.16 39.328-0.16 68.768 0 141.728 105.728 166.912 146.944 171.36 10.592 0.448 21.44 0.704 32.8 0.704 8.512 0 16.672-0.192 24.736-0.416zM192 672c0 38.944 0.16 133.76 111.328 186.688-21.28-33.888-35.072-77.888-35.072-134.72 0-42.4 0.16-70.592 0.32-88.896-29.792-11.616-55.2-24.576-76.576-37.76v74.688zM192 512h640v-96h-24.256c-23.264 44.576-69.344 75.328-123.104 75.328s-99.84-30.752-123.104-75.328h-105.824c-23.232 44.576-69.344 75.328-123.104 75.328-53.728 0-99.84-30.752-123.072-75.328h-17.536v96zM832 320c0-176.448-143.552-320-320-320s-320 143.552-320 320v32h1.344c0-76.928 62.4-139.328 139.328-139.328 76.96 0 139.328 62.4 139.328 139.328h73.312c0-76.928 62.4-139.328 139.328-139.328 76.96 0 139.328 62.4 139.328 139.328h8.032v-32z" />
<glyph unicode="&#xe904;" glyph-name="search" d="M978.624 26.624l-280.384 280.384c52.128 62.304 83.552 142.496 83.552 230.080 0.032 198.24-160.672 358.912-358.88 358.912s-358.912-160.672-358.912-358.912 160.672-358.912 358.912-358.912c87.584 0 167.776 31.424 230.080 83.552l280.384-280.384 45.248 45.28zM422.912 242.176c-162.624 0-294.912 132.32-294.912 294.912 0 162.624 132.288 294.912 294.912 294.912 162.592 0 294.912-132.288 294.912-294.912 0-162.592-132.32-294.912-294.912-294.912z" />
<glyph unicode="&#xe905;" glyph-name="secure" d="M768 576v141.6c0 4.256 3.072 105.184-64.928 176.128-42.208 43.968-101.504 66.272-175.808 66.272s-132.992-22.304-175.168-66.272c-68.064-70.944-64.096-171.84-64.096-174.784v-142.944h-160v-576h800v576h-160zM352 720.288c0 0.768-2.4 78.496 46.176 129.152 29.632 30.88 72.864 46.56 129.088 46.56 56 0 99.744-15.552 129.376-46.208 49.152-50.912 47.36-128.832 47.36-130.848v-142.944h-352v144.288zM864 64h-672v448h672v-448zM632 327.008c0 58.016-47.008 104.992-104.992 104.992s-104.992-47.008-104.992-104.992c0-40.992 23.744-76.128 58.016-93.44v-105.568h96v106.656c33.12 17.664 55.968 52.16 55.968 92.352z" />
<glyph unicode="&#xe906;" glyph-name="phone" d="M164.256 869.824l172.96-172.288-112.96-112.96 405.664-405.792 115.904 115.776 180.608-180.736-114.048-114.752c-57.248 2.368-227.84 32.288-470.72 275.168-238.304 238.24-272.608 434.304-277.28 496.768l99.872 98.816zM164.384 960l-164.384-162.656c0 0-21.472-250.528 296.384-568.352 270.208-270.208 463.968-294.048 523.936-294.048 12.864 0 19.552 1.088 19.552 1.088l176.864 177.952-270.88 271.136-115.936-115.776-315.2 315.296 113.056 113.056-263.392 262.304z" />
<glyph unicode="&#xe907;" glyph-name="prev" d="M645.28-47.616l-477.92 477.856 491.232 491.232 90.496-90.496-400.704-400.736 387.392-387.36z" />
<glyph unicode="&#xe908;" glyph-name="next" d="M316.448-47.616l-90.496 90.496 387.392 387.36-400.704 400.736 90.496 90.496 491.2-491.232z" />
<glyph unicode="" glyph-name="next" d="M316.448-47.616l-90.496 90.496 387.392 387.36-400.704 400.736 90.496 90.496 491.2-491.232z" />
<glyph unicode="secure" glyph-name="secure" d="M768 576v141.6c0 4.256 3.072 105.184-64.928 176.128-42.208 43.968-101.504 66.272-175.808 66.272s-132.992-22.304-175.168-66.272c-68.064-70.944-64.096-171.84-64.096-174.784v-142.944h-160v-576h800v576h-160zM352 720.288c0 0.768-2.4 78.496 46.176 129.152 29.632 30.88 72.864 46.56 129.088 46.56 56 0 99.744-15.552 129.376-46.208 49.152-50.912 47.36-128.832 47.36-130.848v-142.944h-352v144.288zM864 64h-672v448h672v-448zM632 327.008c0 58.016-47.008 104.992-104.992 104.992s-104.992-47.008-104.992-104.992c0-40.992 23.744-76.128 58.016-93.44v-105.568h96v106.656c33.12 17.664 55.968 52.16 55.968 92.352z" />
<glyph unicode="search" glyph-name="search" d="M978.624 26.624l-280.384 280.384c52.128 62.304 83.552 142.496 83.552 230.080 0.032 198.24-160.672 358.912-358.88 358.912s-358.912-160.672-358.912-358.912 160.672-358.912 358.912-358.912c87.584 0 167.776 31.424 230.080 83.552l280.384-280.384 45.248 45.28zM422.912 242.176c-162.624 0-294.912 132.32-294.912 294.912 0 162.624 132.288 294.912 294.912 294.912 162.592 0 294.912-132.288 294.912-294.912 0-162.592-132.32-294.912-294.912-294.912z" />
<glyph unicode="profile" glyph-name="profile" d="M896 512h32c0 0-10.208 14.4-32 34.464v125.536c0 126.336-68.448 275.552-355.296 286.88-7.904 0.896 3.296 1.44-28.704 1.472v-0.736c0 0.064-8.8 0.384-13.12 0.384-6.336 0 13.12-0.448-18.88-0.576v0.928c0 0-8.992-0.672-17.696-1.696-280.256-13.696-334.304-161.472-334.304-286.656v-123.456c-22.144-21.216-32-36.544-32-36.544h32v-96h-32v-64h32v-32c0-211.744 172.256-384 384-384s384 172.256 384 384v32h32v64h-32v96zM832 672v-77.632c-22.784 13.92-50.304 27.712-82.304 40 0.16 18.304 0.32 46.72 0.32 89.6 0 58.944-14.752 104.16-37.376 138.528 119.328-52.096 119.36-150.624 119.36-190.496zM536.736 895.584c39.68-3.84 149.28-27.424 149.28-171.648 0-29.856-0.064-52.256-0.192-69.504-50.528 12.928-109.504 21.536-178.816 21.536-67.968 0-125.44-8.288-174.592-20.8-0.096 17.152-0.16 39.328-0.16 68.768 0 141.728 105.728 166.912 146.944 171.36 10.592 0.448 21.44 0.704 32.8 0.704 8.512 0 16.672-0.192 24.736-0.416zM192 672c0 38.944 0.16 133.76 111.328 186.688-21.28-33.888-35.072-77.888-35.072-134.72 0-42.4 0.16-70.592 0.32-88.896-29.792-11.616-55.2-24.576-76.576-37.76v74.688zM192 512h640v-96h-24.256c-23.264 44.576-69.344 75.328-123.104 75.328s-99.84-30.752-123.104-75.328h-105.824c-23.232 44.576-69.344 75.328-123.104 75.328-53.728 0-99.84-30.752-123.072-75.328h-17.536v96zM832 320c0-176.448-143.552-320-320-320s-320 143.552-320 320v32h1.344c0-76.928 62.4-139.328 139.328-139.328 76.96 0 139.328 62.4 139.328 139.328h73.312c0-76.928 62.4-139.328 139.328-139.328 76.96 0 139.328 62.4 139.328 139.328h8.032v-32z" />
<glyph unicode="prev" glyph-name="prev" d="M645.28-47.616l-477.92 477.856 491.232 491.232 90.496-90.496-400.704-400.736 387.392-387.36z" />
<glyph unicode="phone" glyph-name="phone" d="M164.256 869.824l172.96-172.288-112.96-112.96 405.664-405.792 115.904 115.776 180.608-180.736-114.048-114.752c-57.248 2.368-227.84 32.288-470.72 275.168-238.304 238.24-272.608 434.304-277.28 496.768l99.872 98.816zM164.384 960l-164.384-162.656c0 0-21.472-250.528 296.384-568.352 270.208-270.208 463.968-294.048 523.936-294.048 12.864 0 19.552 1.088 19.552 1.088l176.864 177.952-270.88 271.136-115.936-115.776-315.2 315.296 113.056 113.056-263.392 262.304z" />
<glyph unicode="next" glyph-name="next" d="M316.448-47.616l-90.496 90.496 387.392 387.36-400.704 400.736 90.496 90.496 491.2-491.232z" />
<glyph unicode="cart_full" glyph-name="cart_full" d="M890.112 96h-794.112v736h-96v64h160v-160h860.704l-130.592-640zM160 160h677.888l104.48 512h-782.368v-512zM208.512 7.744c0-31.069-25.187-56.256-56.256-56.256s-56.256 25.187-56.256 56.256c0 31.069 25.187 56.256 56.256 56.256s56.256-25.187 56.256-56.256zM880.512 7.744c0-31.069-25.187-56.256-56.256-56.256s-56.256 25.187-56.256 56.256c0 31.069 25.187 56.256 56.256 56.256s56.256-25.187 56.256-56.256zM224 288v-64h557.696l13.664 64zM224 448v-64h591.936l13.696 64zM224 608v-64h626.176l13.696 64z" />
<glyph unicode="cart_empty" glyph-name="cart_empty" d="M890.112 96h-794.112v736h-96v64h160v-160h860.704l-130.592-640zM160 160h677.888l104.48 512h-782.368v-512zM208.512 7.744c0-31.069-25.187-56.256-56.256-56.256s-56.256 25.187-56.256 56.256c0 31.069 25.187 56.256 56.256 56.256s56.256-25.187 56.256-56.256zM880.512 7.744c0-31.069-25.187-56.256-56.256-56.256s-56.256 25.187-56.256 56.256c0 31.069 25.187 56.256 56.256 56.256s56.256-25.187 56.256-56.256z" />
<glyph unicode="cart_add" glyph-name="cart_add" horiz-adv-x="1600" d="M890.112 96h-794.112v736h-96v64h160v-160h860.704l-130.592-640zM160 160h677.888l104.48 512h-782.368v-512zM208.512 7.744c0-31.069-25.187-56.256-56.256-56.256s-56.256 25.187-56.256 56.256c0 31.069 25.187 56.256 56.256 56.256s56.256-25.187 56.256-56.256zM880.512 7.744c0-31.069-25.187-56.256-56.256-56.256s-56.256 25.187-56.256 56.256c0 31.069 25.187 56.256 56.256 56.256s56.256-25.187 56.256-56.256zM1600 736h-224v224h-64v-224h-224v-64h224v-224h64v224h224z" />
</font>
</defs>
</svg>
